Jump to content

Build Theme!
  • Log in with Twitter Log in with Windows Live Log In with Google      Sign In   
  • Create Account
The Magnificent Seven (2016)

Phim Mới

Photo
Uptobox

Suicide Squad 2016 1080p HDRip KORSUB x264 AAC2 0-STUTTERSHIT ~ BIỆT ĐỘI CẢM TỬ

uptobox action crime 2016 hdrip tt1386697

  • Please log in to reply

Other quality, encode

    You must login to see this content. How to register.

No replies to this topic

#1 Bố Già

    để đó anh lo

    Bố Già
  • 5,414 posts

Posted 07 October 2016 - 09:48 PM

Suicide Squad 2016 1080p HDRip KORSUB x264 AAC2 0-STUTTERSHIT

BIỆT ĐỘI CẢM TỬ

9EqMxSzs.jpeg

Suicide Squad xoay quanh nhóm ác nhân mang tên Biệt đội Cảm tử. Đây là tổ chức đánh thuê gồm toàn những kẻ thù của Batman, được chính phủ tập hợp lại để chuyên thực hiện các nhiệm vụ tối mật. Điều gây tò mò nhất cho công chúng về Suicide Squad hẳn là nhân vật Joker. Mọi chuyện bắt đầu từ trò đùa tai quái của Joker, khi hắn gửi tới Harley một lá thư tình rất đẹp chứa trong chiếc hộp đen cùng một con chuột-còn-sống-nhăn trong đó. Và rồi cậu ấy gửi cho Will Smith một băng đạn thật có kèm tâm thư. Hắn còn gửi cho các đồng đội một món quà dưới dạng... một con heo chết, kèm với đó là cuốn băng ghi lại lời của Leto trong hình dạng của Joker: "Mấy người, tôi không thể ở đó cùng các bạn nhưng tôi muốn mấy người biết là tôi cũng đang tập luyện vất vả y như mấy người vậy".

:uptobox:
Hướng dẫn download uptobox nhanh, tối đa tốc độ đường truyền.
Hidden Content
You'll be able to see the hidden content once you log in.
:sub:
http://subscene.com
Video
ID                                       : 1
Format                                   : AVC
Format/Info                              : Advanced Video Codec
Format profile                           : [email protected]<script data-cfhash='f9e31' type="text/javascript">/*  */</script>
Format settings, CABAC                   : Yes
Format settings, ReFrames                : 4 frames
Codec ID                                 : avc1
Codec ID/Info                            : Advanced Video Coding
Duration                                 : 2h 2mn
Bit rate                                 : 4 500 Kbps
Width                                    : 1 920 pixels
Height                                   : 800 pixels
Display aspect ratio                     : 2.40:1
Frame rate mode                          : Constant
Frame rate                               : 29.970 (30000/1001) fps
Color space                              : YUV
Chroma subsampling                       : 4:2:0
Bit depth                                : 8 bits
Scan type                                : Progressive
Bits/(Pixel*Frame)                       : 0.098
Stream size                              : 3.85 GiB (95%)
Title                                    : Suicide.Squad.2016.1080p.HDRip.KORSUB.x264.AAC2.0-STUTTERSHIT
Writing library                          : x264 core 148 r2597M e86f3a1
Encoding settings                        : cabac=1 / ref=4 / deblock=1:0:0 / analyse=0x3:0x113 / me=umh / subme=8 / psy=1 / psy_rd=1.00:0.00 / mixed_ref=1 / me_range=16 / chroma_me=1 / trellis=1 / 8x8dct=1 / cqm=0 / deadzone=21,11 / fast_pskip=1 / chroma_qp_offset=-2 / threads=40 / lookahead_threads=6 / sliced_threads=0 / nr=0 / decimate=1 / interlaced=0 / bluray_compat=0 / constrained_intra=0 / bframes=3 / b_pyramid=2 / b_adapt=2 / b_bias=0 / direct=3 / weightb=1 / open_gop=0 / weightp=2 / keyint=250 / keyint_min=25 / scenecut=40 / intra_refresh=0 / rc_lookahead=50 / rc=abr / mbtree=1 / bitrate=4500 / ratetol=1.0 / qcomp=0.60 / qpmin=0 / qpmax=69 / qpstep=4 / ip_ratio=1.40 / aq=1:1.00
 
Audio
ID                                       : 2
Format                                   : AAC
Format/Info                              : Advanced Audio Codec
Format profile                           : LC
Codec ID                                 : 40
Duration                                 : 2h 2mn
Bit rate mode                            : Constant
Bit rate                                 : 224 Kbps
Channel(s)                               : 2 channels
Channel positions                        : Front: L R
Sampling rate                            : 48.0 KHz
Frame rate                               : 46.875 fps (1024 spf)
Compression mode                         : Lossy
Stream size                              : 197 MiB (5%)
Title                                    : Suicide.Squad.2016.1080p.HDRip.KORSUB.x264.AAC2.0-STUTTERSHIT
Default                                  : Yes
Alternate group                          : 1

viewer.php?file=17159909361467972910.pngviewer.php?file=17314006988130207947.pngviewer.php?file=12142120779867391378.pngviewer.php?file=50158773754735506773.png

 


  • dungke likes this

Hướng dẫn getlink UPTOBOX and http://www.mega-debrid.eu/

a82aaRQbxL2_460sa_v1.gifHướng dẫn getlink UPTOBOX and http://www.mega-debrid.eu/
ai sử dụng không đc thì pm nhé
THANKS để thấy link, thích thì LIKE


TOP DOANH THU

Chỉ dẫn nhanh

» Làm gì khi link dead? ⇒ Report

» Yêu cầu host link fshare ⇒ Report

Liên kết nhanh

Subscribes

Enter your email address:

Nhận thư khi có phim mới.

Tìm phim

I ♡ HDM


Đối tác