Jump to content

Build Theme!
  • Log in with Twitter Log in with Windows Live Log In with Google      Sign In   
  • Create Account
The Magnificent Seven (2016)

Phim Mới

Photo
Uptobox

Summer of Director Oh 2016 720p HDRip H264-obame [18+]

uptobox drama romance 18+

  • Please log in to reply

Other quality, encode

    You must login to see this content. How to register.

1 reply to this topic

#1 Bố Già

    để đó anh lo

    Bố Già
  • 5,414 posts

Posted 22 August 2016 - 07:30 AM

Summer of Director Oh 2016 720p HDRip H264-obame [18+]

9c7d44ad086f764fc8556ff2b9e19f71.jpg

Director Oh Soo-jin had a taste of failure with her first movie. She thinks about a fancy come back but no one wants her now. Then one day, opportunity finds her but it's an erotic film... She is "Sky Girl"...

:uptobox:
Hướng dẫn download uptobox nhanh, tối đa tốc độ đường truyền.
Hidden Content

http://uptobox.com/diktnbke763v/Summer of Director Oh 2016 720p HDRip H264-obame.mkv
:sub:
http://subscene.com
Format                                   : Matroska
Format version                           : Version 4 / Version 2
File size                                : 2.92 GiB
Duration                                 : 1h 37mn
Overall bit rate                         : 4 274 Kbps
Movie name                               : Suspicious.Sisters.2015.720p.HDRip.YUIx87
Encoded date                             : UTC 2016-08-21 16:34:11
Writing application                      : mkvmerge v9.2.0 ('Photograph') 64bit
Writing library                          : libebml v1.3.3 + libmatroska v1.4.4
DURATION                                 : 01:37:41.277000000
NUMBER_OF_FRAMES                         : 224377
NUMBER_OF_BYTES                          : 70335321
_STATISTICS_WRITING_APP                  : mkvmerge v9.2.0 ('Photograph') 64bit
_STATISTICS_WRITING_DATE_UTC             : 2016-08-21 16:34:11
_STATISTICS_TAGS                         : BPS DURATION NUMBER_OF_FRAMES NUMBER_OF_BYTES
 
Video
ID                                       : 2
Format                                   : AVC
Format/Info                              : Advanced Video Codec
Format profile                           : [email protected]<script data-cfhash='f9e31' type="text/javascript">/*  */</script>
Format settings, CABAC                   : Yes
Format settings, ReFrames                : 1 frame
Codec ID                                 : V_MPEG4/ISO/AVC
Duration                                 : 1h 37mn
Bit rate                                 : 3 965 Kbps
Width                                    : 1 280 pixels
Height                                   : 720 pixels
Display aspect ratio                     : 16:9
Frame rate mode                          : Constant
Frame rate                               : 29.970 fps
Color space                              : YUV
Chroma subsampling                       : 4:2:0
Bit depth                                : 8 bits
Scan type                                : Progressive
Bits/(Pixel*Frame)                       : 0.144
Stream size                              : 2.71 GiB (93%)
Default                                  : Yes
Forced                                   : No
 
Audio #1
ID                                       : 1
Format                                   : MPEG Audio
Format version                           : Version 2.5
Format profile                           : Layer 3
Codec ID                                 : A_MPEG/L3
Codec ID/Hint                            : MP3
Duration                                 : 1h 37mn
Bit rate mode                            : Constant
Bit rate                                 : 128 Kbps
Channel(s)                               : 1 channel
Sampling rate                            : 11.025 KHz
Compression mode                         : Lossy
Stream size                              : 89.4 MiB (3%)
Writing library                          : LAME3.93
Default                                  : Yes
Forced                                   : No
 
Audio #2
ID                                       : 3
Format                                   : MPEG Audio
Format version                           : Version 1
Format profile                           : Layer 3
Mode                                     : Joint stereo
Mode extension                           : MS Stereo
Codec ID                                 : A_MPEG/L3
Codec ID/Hint                            : MP3
Duration                                 : 1h 37mn
Bit rate mode                            : Constant
Bit rate                                 : 96.0 Kbps
Channel(s)                               : 2 channels
Sampling rate                            : 44.1 KHz
Compression mode                         : Lossy
Stream size                              : 67.1 MiB (2%)
Writing library                          : LAME3.98.2
Default                                  : No
Forced                                   : No

ar1aayepb6d9.jpgj85dfbtdzgkk.jpgdefh65n5wk8e.jpgljco5ifzsvho.jpgt5qsr6ls8kwd.jpghflpx2erpxq4.jpg

 


  • contrucstion likes this

Hướng dẫn getlink UPTOBOX and http://www.mega-debrid.eu/

a82aaRQbxL2_460sa_v1.gifHướng dẫn getlink UPTOBOX and http://www.mega-debrid.eu/
ai sử dụng không đc thì pm nhé
THANKS để thấy link, thích thì LIKE


#2 contrucstion

    Thành viên tâm huyết

    contrucstion
  • 1,257 posts

Posted 24 August 2016 - 09:00 PM

lun và ngay



TOP DOANH THU

Chỉ dẫn nhanh

» Làm gì khi link dead? ⇒ Report

» Yêu cầu host link fshare ⇒ Report

Liên kết nhanh

Subscribes

Enter your email address:

Nhận thư khi có phim mới.

Tìm phim

I ♡ HDM


Đối tác