Jump to content

Build Theme!
  • Log in with Twitter Log in with Windows Live Log In with Google      Sign In   
  • Create Account
The Magnificent Seven (2016)

Phim Mới

Photo
Uptobox

Weekend Couple 2016 HDRip 1080p x264 18+

uptobox romance 2016 hdrip

  • Please log in to reply

Other quality, encode

    You must login to see this content. How to register.

1 reply to this topic

#1 Bố Già

    để đó anh lo

    Bố Già
  • 5,414 posts

Posted 27 July 2016 - 10:02 AM

Weekend Couple 2016 HDRip 1080p x264 18+

Phim có nội dung nhạy cảm dưới 18 tuổi cân nhắc khi xem

UHafw_e1H6H_bcAI2_8B7OM.jpg

The story explores the theme of netorare complex in earnest. Yeong-hoon realizes that he is strangely drawn to Mi-ran, a married woman, who is one of his colleagues at work and adored by many men. Yeong-hoon keeps flirting with her...

:uptobox:
Hướng dẫn download uptobox nhanh, tối đa tốc độ đường truyền.
Hidden Content
You'll be able to see the hidden content once you log in.
:sub:
http://subscene.com
General
Complete name                            : 주말부부.2016.HD.1080P. ob.mkv
Format                                   : Matroska
Format version                           : Version 2
File size                                : 2.94 GiB
Duration                                 : 1h 25mn
Overall bit rate                         : 4 921 Kbps
Encoded date                             : UTC 2016-06-23 10:32:19
Writing application                      : mkvmerge v5.2.0 ('I can't explain') built on Dec 18 2011 18:12:03
Writing library                          : libebml v1.2.3 + libmatroska v1.3.0
 
Video
ID                                       : 2
Format                                   : AVC
Format/Info                              : Advanced Video Codec
Format profile                           : Baseline@L4
Format settings, CABAC                   : No
Format settings, ReFrames                : 1 frame
Muxing mode                              : Header stripping
Codec ID                                 : V_MPEG4/ISO/AVC
Duration                                 : 1h 25mn
Bit rate                                 : 4 599 Kbps
Width                                    : 1 920 pixels
Height                                   : 1 080 pixels
Display aspect ratio                     : 16:9
Frame rate mode                          : Constant
Frame rate                               : 24.000 fps
Color space                              : YUV
Chroma subsampling                       : 4:2:0
Bit depth                                : 8 bits
Scan type                                : Progressive
Bits/(Pixel*Frame)                       : 0.092
Stream size                              : 2.75 GiB (93%)
Default                                  : Yes
Forced                                   : No
 
Audio #1
ID                                       : 1
Format                                   : MPEG Audio
Format version                           : Version 2.5
Format profile                           : Layer 3
Muxing mode                              : Header stripping
Codec ID                                 : A_MPEG/L3
Codec ID/Hint                            : MP3
Duration                                 : 1h 25mn
Bit rate mode                            : Constant
Bit rate                                 : 128 Kbps
Channel(s)                               : 1 channel
Sampling rate                            : 11.025 KHz
Compression mode                         : Lossy
Stream size                              : 78.4 MiB (3%)
Writing library                          : LAME3.93
Default                                  : Yes
Forced                                   : No
 
Audio #2
ID                                       : 3
Format                                   : MPEG Audio
Format version                           : Version 1
Format profile                           : Layer 3
Mode                                     : Joint stereo
Mode extension                           : MS Stereo
Muxing mode                              : Header stripping
Codec ID                                 : A_MPEG/L3
Codec ID/Hint                            : MP3
Duration                                 : 1h 25mn
Bit rate mode                            : Constant
Bit rate                                 : 96.0 Kbps
Channel(s)                               : 2 channels
Sampling rate                            : 44.1 KHz
Compression mode                         : Lossy
Stream size                              : 58.8 MiB (2%)
Writing library                          : LAME3.98.2
Default                                  : No
Forced                                   : No

h1xqe5istakl.jpg1ylcwztkzjpx.jpgw0jqcaiu7euy.jpgxyujejjudvja.jpgz8u2ayuyfykc.jpgfeui7xzghjpe.jpg

 


  • Devilhpvn and ilikethelove03 like this

Hướng dẫn getlink UPTOBOX and http://www.mega-debrid.eu/

a82aaRQbxL2_460sa_v1.gifHướng dẫn getlink UPTOBOX and http://www.mega-debrid.eu/
ai sử dụng không đc thì pm nhé
THANKS để thấy link, thích thì LIKE


#2 anhdung411

    Thành viên mới

    anhdung411
  • 3 posts

Posted 06 August 2016 - 11:16 AM

phim hấp dẫn quá


  • Seven Up likes this

TOP DOANH THU

Chỉ dẫn nhanh

» Làm gì khi link dead? ⇒ Report

» Yêu cầu host link fshare ⇒ Report

Liên kết nhanh

Subscribes

Enter your email address:

Nhận thư khi có phim mới.

Tìm phim

I ♡ HDM


Đối tác