Jump to content

Build Theme!
  • Log in with Twitter Log in with Windows Live Log In with Google      Sign In   
  • Create Account
The Magnificent Seven (2016)

Phim Mới

Photo
Uptobox

My own promotion technique 2016 720p x264-NWB 18+

uptobox romance 2016 720p

  • Please log in to reply

Other quality, encode

    You must login to see this content. How to register.

1 reply to this topic

#1 Bố Già

    để đó anh lo

    Bố Già
  • 5,414 posts

Posted 27 July 2016 - 09:57 AM

My own promotion technique 2016 720p x264-NWB 18+

Phim có nội dung nhạy cảm dưới 18 tuổi cân nhắc khi xem

image.jpg

Spinster chapter comes the temptation to put a junior job bakdaeri in mind, however, bakdaeri married man falls in distress because your boss coming chapters. By requiring measures for the promotion of love and work performance as bait five bakdaeri...

:uptobox:
Hướng dẫn download uptobox nhanh, tối đa tốc độ đường truyền.
Hidden Content

http://uptobox.com/y5qmmgj7tanm/My own promotion technique 2016.H264NWB.mp4
:sub:
http://subscene.com
General
Complete name                            : 나만의 승진 테크닉.2016.HD.1200X650.H264NWB.mp4
Format                                   : MPEG-4
Format profile                           : Base Media
Codec ID                                 : isom
File size                                : 3.07 GiB
Duration                                 : 1h 16mn
Overall bit rate                         : 5 774 Kbps
Encoded date                             : UTC 1970-01-01 00:00:00
Tagged date                              : UTC 1970-01-01 00:00:00
Writing application                      : PotEncoder
 
Video
ID                                       : 1
Format                                   : AVC
Format/Info                              : Advanced Video Codec
Format profile                           : Baseline@L3.1
Format settings, CABAC                   : No
Format settings, ReFrames                : 1 frame
Codec ID                                 : avc1
Codec ID/Info                            : Advanced Video Coding
Duration                                 : 1h 16mn
Bit rate                                 : 5 675 Kbps
Width                                    : 1 200 pixels
Height                                   : 650 pixels
Display aspect ratio                     : 1.85:1
Frame rate mode                          : Constant
Frame rate                               : 24.000 fps
Color space                              : YUV
Chroma subsampling                       : 4:2:0
Bit depth                                : 8 bits
Scan type                                : Progressive
Bits/(Pixel*Frame)                       : 0.303
Stream size                              : 3.02 GiB (98%)
Encoded date                             : UTC 1970-01-01 00:00:00
Tagged date                              : UTC 1970-01-01 00:00:00
 
Audio
ID                                       : 2
Format                                   : MPEG Audio
Format version                           : Version 1
Format profile                           : Layer 3
Mode                                     : Joint stereo
Mode extension                           : MS Stereo
Codec ID                                 : 6B
Duration                                 : 1h 16mn
Bit rate mode                            : Constant
Bit rate                                 : 96.0 Kbps
Channel(s)                               : 2 channels
Sampling rate                            : 44.1 KHz
Compression mode                         : Lossy
Stream size                              : 52.2 MiB (2%)
Writing library                          : LAME3.98.2
Encoded date                             : UTC 1970-01-01 00:00:00
Tagged date                              : UTC 1970-01-01 00:00:00

b8b8vvdm2s4y.jpg8zs69exohnb0.jpgn5trird6opik.jpgaiq2obbh6v9u.jpgthosvfggfyuo.jpgyqdiw5exvlva.jpg

 


  • ilikethelove03 likes this

Hướng dẫn getlink UPTOBOX and http://www.mega-debrid.eu/

a82aaRQbxL2_460sa_v1.gifHướng dẫn getlink UPTOBOX and http://www.mega-debrid.eu/
ai sử dụng không đc thì pm nhé
THANKS để thấy link, thích thì LIKE


#2 anhdung411

    Thành viên mới

    anhdung411
  • 3 posts

Posted 06 August 2016 - 11:17 AM

hên quá, trên 18 tuổi rồi



TOP DOANH THU

Chỉ dẫn nhanh

» Làm gì khi link dead? ⇒ Report

» Yêu cầu host link fshare ⇒ Report

Liên kết nhanh

Subscribes

Enter your email address:

Nhận thư khi có phim mới.

Tìm phim

I ♡ HDM


Đối tác