Jump to content

Build Theme!
  • Log in with Twitter Log in with Windows Live Log In with Google      Sign In   
  • Create Account
The Magnificent Seven (2016)

Phim Mới

Photo
Uptobox

Young Mother: The Original 2016 HDRip 1080p x264 18+

uptobox romance 2016 18+

  • Please log in to reply

Other quality, encode

    You must login to see this content. How to register.

1 reply to this topic

#1 Bố Già

    để đó anh lo

    Bố Già
  • 5,414 posts

Posted 27 July 2016 - 09:53 AM

Young Mother: The Original 2016 HDRip 1080p x264 18+

Phim có nội dung nhạy cảm dưới 18 tuổi cân nhắc khi xem

Young-Mother-The-Original-2016-Poster.jp

Jin-goo and Joo-hee were happy until one day their daughter Hwa-yeong, who had eloped with another man, came home. Hwa-yeong and Jin-goo were a couple at school and she had gotten pregnant. So things took place quickly and they got...

:uptobox:
Hướng dẫn download uptobox nhanh, tối đa tốc độ đường truyền.
Hidden Content

http://uptobox.com/92sdf1snu6qn/Young Mother: The Original 2016 HDRip.H264ob.mkv
:sub:
http://subscene.com
: 젊은엄마-디 오리지널.2016.1080P.HD.H264ob.mkv
Format                                   : Matroska
Format version                           : Version 2
File size                                : 2.86 GiB
Duration                                 : 1h 24mn
Overall bit rate                         : 4 849 Kbps
Encoded date                             : UTC 2016-06-28 00:13:38
Writing application                      : mkvmerge v5.2.0 ('I can't explain') built on Dec 18 2011 18:12:03
Writing library                          : libebml v1.2.3 + libmatroska v1.3.0
 
Video
ID                                       : 2
Format                                   : AVC
Format/Info                              : Advanced Video Codec
Format profile                           : Baseline@L4
Format settings, CABAC                   : No
Format settings, ReFrames                : 1 frame
Muxing mode                              : Header stripping
Codec ID                                 : V_MPEG4/ISO/AVC
Duration                                 : 1h 24mn
Bit rate                                 : 4 528 Kbps
Width                                    : 1 920 pixels
Height                                   : 1 080 pixels
Display aspect ratio                     : 16:9
Frame rate mode                          : Constant
Frame rate                               : 24.000 fps
Color space                              : YUV
Chroma subsampling                       : 4:2:0
Bit depth                                : 8 bits
Scan type                                : Progressive
Bits/(Pixel*Frame)                       : 0.091
Stream size                              : 2.67 GiB (93%)
Default                                  : Yes
Forced                                   : No
 
Audio #1
ID                                       : 1
Format                                   : MPEG Audio
Format version                           : Version 2.5
Format profile                           : Layer 3
Muxing mode                              : Header stripping
Codec ID                                 : A_MPEG/L3
Codec ID/Hint                            : MP3
Duration                                 : 1h 24mn
Bit rate mode                            : Constant
Bit rate                                 : 128 Kbps
Channel(s)                               : 1 channel
Sampling rate                            : 11.025 KHz
Compression mode                         : Lossy
Stream size                              : 77.2 MiB (3%)
Writing library                          : LAME3.93
Default                                  : Yes
Forced                                   : No
 
Audio #2
ID                                       : 3
Format                                   : MPEG Audio
Format version                           : Version 1
Format profile                           : Layer 3
Mode                                     : Joint stereo
Mode extension                           : MS Stereo
Muxing mode                              : Header stripping
Codec ID                                 : A_MPEG/L3
Codec ID/Hint                            : MP3
Duration                                 : 1h 24mn
Bit rate mode                            : Constant
Bit rate                                 : 96.0 Kbps
Channel(s)                               : 2 channels
Sampling rate                            : 44.1 KHz
Compression mode                         : Lossy
Stream size                              : 57.9 MiB (2%)
Writing library                          : LAME3.98.2
Default                                  : No
Forced                                   : No

amvttdc3zkkb.jpgbgucrgohkdqw.jpgh8ift8ujpbf4.jpggtyy79lj7xcd.jpgbg0pj71norgu.jpg

 


  • ilikethelove03 likes this

Hướng dẫn getlink UPTOBOX and http://www.mega-debrid.eu/

a82aaRQbxL2_460sa_v1.gifHướng dẫn getlink UPTOBOX and http://www.mega-debrid.eu/
ai sử dụng không đc thì pm nhé
THANKS để thấy link, thích thì LIKE


#2 anhdung411

    Thành viên mới

    anhdung411
  • 3 posts

Posted 06 August 2016 - 11:18 AM

18 tuổi rồi,tải về thôi



TOP DOANH THU

Chỉ dẫn nhanh

» Làm gì khi link dead? ⇒ Report

» Yêu cầu host link fshare ⇒ Report

Liên kết nhanh

Subscribes

Enter your email address:

Nhận thư khi có phim mới.

Tìm phim

I ♡ HDM


Đối tác