Jump to content

Build Theme!
  • Log in with Twitter Log in with Windows Live Log In with Google      Sign In   
  • Create Account
The Magnificent Seven (2016)

Phim Mới

Photo
Uptobox

Sex: A Relationship and Not Marriage 2016 HDRip 720p H264 AAC-STY (18+)

uptobox romance 2016 hdrip

  • Please log in to reply

Other quality, encode

    You must login to see this content. How to register.

1 reply to this topic

#1 Bố Già

    để đó anh lo

    Bố Già
  • 5,414 posts

Posted 27 July 2016 - 09:48 AM

Sex: A Relationship and Not Marriage 2016 HDRip 720p H264 AAC-STY (18+)

 

Phim có nhiều cảnh nóng dưới 18 tuổi cân nhắc khi xem

Sex-A-Relationship-and-Not-Marriage_post

"Getting married is crazy! I only want to be in relationships!" The life story of a woman who doesn't want to settle for one man. Her mom nags at her to get married, her superior grills her to bring results and her boyfriend turns out to be married. Soo-kyeong comforts herself with some spicy food. One lonely birthday, she ends up having sex with the chef of the spicy food restaurant. They fit well mentally and physically so they get closer but Soo-kyeong rejects the chef's marriage proposal. The chef gets married with someone else and asks her, "I got married with someone else like you said. Now will you have a relationship with me?"

:uptobox:
Hướng dẫn download uptobox nhanh, tối đa tốc độ đường truyền.
Hidden Content

http://uptobox.com/uo5xj1nknwua/Sex: A Relationship and Not Marriage 2016 HDRip.H264.AAC-STY.mp4
:sub:
http://subscene.com
Complete name                            : 정사.결혼.말고.연애.2016.HDRip.720p.H264.AAC-STY.mp4
Format                                   : MPEG-4
Format profile                           : Base Media
Codec ID                                 : isom
File size                                : 2.80 GiB
Duration                                 : 1h 49mn
Overall bit rate                         : 3 658 Kbps
Writing application                      : ShanaEncoder
 
Video
ID                                       : 1
Format                                   : AVC
Format/Info                              : Advanced Video Codec
Format profile                           : Baseline@L3.1
Format settings, CABAC                   : No
Format settings, ReFrames                : 1 frame
Codec ID                                 : avc1
Codec ID/Info                            : Advanced Video Coding
Duration                                 : 1h 49mn
Bit rate                                 : 3 500 Kbps
Width                                    : 1 280 pixels
Height                                   : 720 pixels
Display aspect ratio                     : 16:9
Frame rate mode                          : Variable
Frame rate                               : 23.976 fps
Minimum frame rate                       : 11.988 fps
Maximum frame rate                       : 23.976 fps
Color space                              : YUV
Chroma subsampling                       : 4:2:0
Bit depth                                : 8 bits
Scan type                                : Progressive
Bits/(Pixel*Frame)                       : 0.158
Stream size                              : 2.65 GiB (95%)
Writing library                          : x264 core 148
Encoding settings                        : opencl=1 / cabac=0 / ref=1 / deblock=1:0:0 / analyse=0x1:0x111 / me=hex / subme=2 / psy=1 / psy_rd=1.00:0.00 / mixed_ref=0 / me_range=16 / chroma_me=1 / trellis=0 / 8x8dct=0 / cqm=0 / deadzone=21,11 / fast_pskip=1 / chroma_qp_offset=0 / threads=6 / lookahead_threads=2 / sliced_threads=0 / nr=0 / decimate=1 / interlaced=0 / bluray_compat=0 / constrained_intra=0 / bframes=0 / weightp=0 / keyint=250 / keyint_min=23 / scenecut=40 / intra_refresh=0 / rc_lookahead=10 / rc=abr / mbtree=1 / bitrate=3500 / ratetol=1.0 / qcomp=0.60 / qpmin=0 / qpmax=69 / qpstep=4 / ip_ratio=1.40 / aq=1:1.00
 
Audio
ID                                       : 2
Format                                   : AAC
Format/Info                              : Advanced Audio Codec
Format profile                           : LC
Codec ID                                 : 40
Duration                                 : 1h 49mn
Bit rate mode                            : Constant
Bit rate                                 : 192 Kbps
Channel(s)                               : 2 channels
Channel positions                        : Front: L R
Sampling rate                            : 44.1 KHz
Compression mode                         : Lossy
Stream size                              : 151 MiB (5%)

wsohld7yzbdi.jpgbrmlbp1kwxs3.jpggrst70qfm9pf.jpg4l3jom1j4hmh.jpgi3vugmq0f9jm.jpg

 


  • ilikethelove03 likes this

Hướng dẫn getlink UPTOBOX and http://www.mega-debrid.eu/

a82aaRQbxL2_460sa_v1.gifHướng dẫn getlink UPTOBOX and http://www.mega-debrid.eu/
ai sử dụng không đc thì pm nhé
THANKS để thấy link, thích thì LIKE


#2 Seven Up

    Thành viên mới

    Seven Up
  • 1 posts

Posted 10 August 2016 - 02:34 PM

tải phim thế nào các pro



TOP DOANH THU

Chỉ dẫn nhanh

» Làm gì khi link dead? ⇒ Report

» Yêu cầu host link fshare ⇒ Report

Liên kết nhanh

Subscribes

Enter your email address:

Nhận thư khi có phim mới.

Tìm phim

I ♡ HDM


Đối tác