Jump to content

Build Theme!
  • Log in with Twitter Log in with Windows Live Log In with Google      Sign In   
  • Create Account
The Magnificent Seven (2016)

Phim Mới

Photo
MULTI

The Vampire Diaries S07 Complete Season 1080p HDTV X264-DIMENSION

multi the vampire diaries s07 complete season 1080p hdtv dimension the vampire diaries s07

  • Please log in to reply

Other quality, encode

    You must login to see this content. How to register.

No replies to this topic

#1 MaCkeNzie

    Thành viên mới

    MaCkeNzie
  • 0 posts

Posted 30 May 2016 - 08:25 PM

27251391492_14fa1e9fbc_b.jpg

As the school year begins, Elena Gilbert is immediately drawn to a handsome and mysterious new student, Stefan Salvatore. Elena has no way of knowing that Stefan is a vampire struggling to live peacefully among humans, while his brother Damon is the embodiment of vampire violence and brutality.


MediaInfo:
Video
ID                                       : 1
Format                                   : AVC
Format/Info                              : Advanced Video Codec
Format profile                           : High@L4.1
Format settings, CABAC                   : Yes
Format settings, ReFrames                : 4 frames
Codec ID                                 : V_MPEG4/ISO/AVC
Duration                                 : 42mn 26s
Bit rate                                 : 8 391 Kbps
Width                                    : 1 920 pixels
Height                                   : 1 066 pixels
Display aspect ratio                     : 16:9
Frame rate mode                          : Constant
Frame rate                               : 23.976 fps
Color space                              : YUV
Chroma subsampling                       : 4:2:0
Bit depth                                : 8 bits
Scan type                                : Progressive
Bits/(Pixel*Frame)                       : 0.171
Stream size                              : 2.49 GiB (94%)
Writing library                          : x264 core 148 r2597 e86f3a1
Encoding settings                        : cabac=1 / ref=4 / deblock=1:-2:-2 / analyse=0x3:0x113 / me=umh / subme=9 / psy=1 / psy_rd=1.00:0.00 / mixed_ref=1 / me_range=24 / chroma_me=1 / trellis=1 / 8x8dct=1 / cqm=0 / deadzone=21,11 / fast_pskip=0 / chroma_qp_offset=-2 / threads=18 / lookahead_threads=2 / sliced_threads=0 / nr=0 / decimate=1 / interlaced=0 / bluray_compat=0 / constrained_intra=0 / bframes=5 / b_pyramid=2 / b_adapt=2 / b_bias=0 / direct=3 / weightb=1 / open_gop=0 / weightp=2 / keyint=250 / keyint_min=23 / scenecut=40 / intra_refresh=0 / rc_lookahead=50 / rc=crf / mbtree=1 / crf=17.0 / qcomp=0.60 / qpmin=0 / qpmax=69 / qpstep=4 / ip_ratio=1.40 / aq=1:1.00
Language                                 : English
Default                                  : No
Forced                                   : No

Audio
ID                                       : 2
Format                                   : AC-3
Format/Info                              : Audio Coding 3
Mode extension                           : CM (complete main)
Format settings, Endianness              : Big
Codec ID                                 : A_AC3
Duration                                 : 42mn 26s
Bit rate mode                            : Constant
Bit rate                                 : 384 Kbps
Channel(s)                               : 6 channels
Channel positions                        : Front: L C R, Side: L R, LFE
Sampling rate                            : 48.0 KHz
Compression mode                         : Lossy
Delay relative to video                  : 28ms
Stream size                              : 117 MiB (4%)
Default                                  : Yes
Forced                                   : No

Download - FuLL SpeeD
http://keepshare.net/v5tlkjm6aese/The.Vampire.Diaries.S07E01.1080p.HDTV.X264-DIMENSION.mkv
http://keepshare.net/0vmzy4dj6a5m/The.Vampire.Diaries.S07E02.1080p.HDTV.X264-DIMENSION.mkv
http://keepshare.net/nc7qj3b6o8lz/The.Vampire.Diaries.S07E03.1080p.HDTV.X264-DIMENSION.mkv
http://keepshare.net/6irjsgloajcu/The.Vampire.Diaries.S07E04.1080p.HDTV.X264-DIMENSION.mkv
http://keepshare.net/tx0rpca10gvl/The.Vampire.Diaries.S07E05.1080p.HDTV.X264-DIMENSION.mkv
http://keepshare.net/xtt39khrnvxv/The.Vampire.Diaries.S07E06.1080p.HDTV.X264-DIMENSION.mkv
http://keepshare.net/fn0ynlc4jjim/The.Vampire.Diaries.S07E07.1080p.HDTV.X264-DIMENSION.mkv
http://keepshare.net/u0cdy1wixp1k/The.Vampire.Diaries.S07E08.1080p.HDTV.X264-DIMENSION.mkv
http://keepshare.net/rzmmuzqbxo60/The.Vampire.Diaries.S07E09.1080p.HDTV.X264-DIMENSION.mkv
http://keepshare.net/e1nd6nav9555/The.Vampire.Diaries.S07E10.1080p.HDTV.X264-DIMENSION.mkv
http://keepshare.net/903mzywzc260/The.Vampire.Diaires.S07E11.1080p.HDTV.X264-DIMENSION.mkv
http://keepshare.net/6h71vx9c3jdz/The.Vampire.Diaries.S07E12.1080p.HDTV.X264-DIMENSION.mkv
http://keepshare.net/d6lw4z7he2tx/The.Vampire.Diaries.S07E13.1080p.HDTV.X264-DIMENSION.mkv
http://keepshare.net/asjuyxszkcn0/The.Vampire.Diaries.S07E14.1080p.HDTV.X264-DIMENSION.mkv
http://keepshare.net/q1n51iy4kina/The.Vampire.Diaries.S07E15.1080p.HDTV.X264-DIMENSION.mkv
http://keepshare.net/x291uyrxdrim/The.Vampire.Diaries.S07E16.1080p.HDTV.X264-DIMENSION.mkv
http://keepshare.net/rougk35smzw5/The.Vampire.Diaries.S07E17.1080p.HDTV.X264-DIMENSION.mkv
http://keepshare.net/no614crcs2c4/The.Vampire.Diaries.S07E18.1080p.HDTV.X264-DIMENSION.mkv
http://keepshare.net/c285re0gv0fb/The.Vampire.Diaries.S07E19.1080p.HDTV.X264-DIMENSION.mkv
http://keepshare.net/akd3zh8utw73/The.Vampire.Diaries.S07E20.1080p.HDTV.X264-DIMENSION.mkv
http://keepshare.net/p6kyy64digh6/The.Vampire.Diaries.S07E21.1080p.HDTV.X264-DIMENSION.mkv
http://keepshare.net/2ssa23wi6lgr/The.Vampire.Diaries.S07E22.1080p.HDTV.X264-DIMENSION.mkv


TOP DOANH THU

Chỉ dẫn nhanh

» Làm gì khi link dead? ⇒ Report

» Yêu cầu host link fshare ⇒ Report

Liên kết nhanh

Subscribes

Enter your email address:

Nhận thư khi có phim mới.

Tìm phim

I ♡ HDM


Đối tác



Also tagged with one or more of these keywords: multi, the vampire diaries s07, complete, season, 1080p, hdtv, dimension, the vampire diaries, s07