Jump to content

Build Theme!
  • Log in with Twitter Log in with Windows Live Log In with Google      Sign In   
  • Create Account
The Magnificent Seven (2016)

Phim Mới

Photo
MULTI

Supernatural S11 Complete Season 1080p HDTV X264-DIMENSION

multi supernatural s11 complete season 1080p hdtv dimension s11

  • Please log in to reply

Other quality, encode

    You must login to see this content. How to register.

No replies to this topic

#1 MaCkeNzie

    Thành viên mới

    MaCkeNzie
  • 0 posts

Posted 29 May 2016 - 09:35 PM

27051348170_394a3512db_b.jpg

Two brothers follow their father's footsteps as "hunters" fighting evil supernatural beings of many kinds including monsters, demons, and gods that roam the earth.


MediaInfo:
Video
ID                                       : 1
Format                                   : AVC
Format/Info                              : Advanced Video Codec
Format profile                           : High@L4.1
Format settings, CABAC                   : Yes
Format settings, ReFrames                : 4 frames
Codec ID                                 : V_MPEG4/ISO/AVC
Duration                                 : 42mn 25s
Bit rate                                 : 6 319 Kbps
Width                                    : 1 920 pixels
Height                                   : 1 080 pixels
Display aspect ratio                     : 16:9
Frame rate mode                          : Constant
Frame rate                               : 23.976 fps
Color space                              : YUV
Chroma subsampling                       : 4:2:0
Bit depth                                : 8 bits
Scan type                                : Progressive
Bits/(Pixel*Frame)                       : 0.127
Stream size                              : 1.87 GiB (92%)
Writing library                          : x264 core 148 r2597 e86f3a1
Encoding settings                        : cabac=1 / ref=4 / deblock=1:-3:-3 / analyse=0x3:0x133 / me=umh / subme=11 / psy=1 / psy_rd=1.00:0.00 / mixed_ref=1 / me_range=32 / chroma_me=1 / trellis=2 / 8x8dct=1 / cqm=0 / deadzone=21,11 / fast_pskip=0 / chroma_qp_offset=-2 / threads=20 / lookahead_threads=2 / sliced_threads=0 / nr=0 / decimate=1 / interlaced=0 / bluray_compat=0 / constrained_intra=0 / bframes=5 / b_pyramid=2 / b_adapt=2 / b_bias=0 / direct=3 / weightb=1 / open_gop=0 / weightp=2 / keyint=250 / keyint_min=23 / scenecut=40 / intra_refresh=0 / rc_lookahead=60 / rc=crf / mbtree=1 / crf=17.0 / qcomp=0.60 / qpmin=0 / qpmax=69 / qpstep=4 / ip_ratio=1.40 / aq=1:1.00
Language                                 : English
Default                                  : Yes
Forced                                   : No
Color range                              : Limited
Matrix coefficients                      : BT.709
DURATION                                 : 00:42:25.460000000
NUMBER_OF_FRAMES                         : 61030
NUMBER_OF_BYTES                          : 2053678345
_STATISTICS_WRITING_APP                  : mkvmerge v8.4.0 (\'A better way to fly\') 64bit
_STATISTICS_WRITING_DATE_UTC             : 2015-10-07 23:28:57
_STATISTICS_TAGS                         : BPS DURATION NUMBER_OF_FRAMES NUMBER_OF_BYTES

Audio
ID                                       : 2
Format                                   : AC-3
Format/Info                              : Audio Coding 3
Mode extension                           : CM (complete main)
Format settings, Endianness              : Big
Codec ID                                 : A_AC3
Duration                                 : 42mn 25s
Bit rate mode                            : Constant
Bit rate                                 : 384 Kbps
Channel(s)                               : 6 channels
Channel positions                        : Front: L C R, Side: L R, LFE
Sampling rate                            : 48.0 KHz
Compression mode                         : Lossy
Stream size                              : 117 MiB (6%)
Default                                  : Yes
Forced                                   : No

Download - FuLL SpeeD
http://keepshare.net/gtn7v9g9obcz/Supernatural.S11E01.1080p.HDTV.X264-DIMENSION.mkv
http://keepshare.net/8gduox7zjx3g/Supernatural.S11E02.1080p.HDTV.X264-DIMENSION.mkv
http://keepshare.net/najjrpvutsdd/Supernatural.S11E03.1080p.HDTV.X264-DIMENSION.mkv
http://keepshare.net/vinr1owp6rwp/Supernatural.S11E04.1080p.HDTV.X264-DIMENSION.mkv
http://keepshare.net/b7gdh9upq34h/Supernatural.S11E05.1080p.HDTV.X264-DIMENSION.mkv
http://keepshare.net/cuxrr14ahrx9/Supernatural.S11E06.1080p.HDTV.X264-DIMENSION.mkv
http://keepshare.net/t8017ofali5q/Supernatural.S11E07.1080p.HDTV.X264-DIMENSION.mkv
http://keepshare.net/8mm5emg147qc/Supernatural.S11E08.1080p.HDTV.X264-DIMENSION.mkv
http://keepshare.net/0hxod98yk8cb/Supernatural.S11E09.1080p.HDTV.X264-DIMENSION.mkv
http://keepshare.net/htacb68ceit3/Supernatural.S11E10.1080p.HDTV.X264-DIMENSION.mkv
http://keepshare.net/p577nqw4mkzn/Supernatural.S11E11.1080p.HDTV.X264-DIMENSION.mkv
http://keepshare.net/15pkcqlhbmua/Supernatural.S11E12.1080p.HDTV.X264-DIMENSION.mkv
http://keepshare.net/rlo57v0o45pu/Supernatural.S11E13.1080p.HDTV.X264-DIMENSION.mkv
http://keepshare.net/ke8o2zhjxss7/Supernatural.S11E14.1080p.HDTV.X264-DIMENSION.mkv
http://keepshare.net/h0q2du2ur5gs/Supernatural.S11E15.1080p.HDTV.X264-DIMENSION.mkv
http://keepshare.net/dbef5bonryb7/Supernatural.S11E16.1080p.HDTV.X264-DIMENSION.mkv
http://keepshare.net/yd825uequ6po/Supernatural.S11E17.1080p.HDTV.X264-DIMENSION.mkv
http://keepshare.net/735j8beit7y9/Supernatural.S11E18.1080p.HDTV.X264-DIMENSION.mkv
http://keepshare.net/rhoqomuq94gm/Supernatural.S11E19.1080p.HDTV.X264-DIMENSION.mkv
http://keepshare.net/q6lwlpyahu4a/Supernatural.S11E20.1080p.HDTV.X264-DIMENSION.mkv
http://keepshare.net/hqtmq54w82mg/Supernatural.S11E21.1080p.HDTV.X264-DIMENSION.mkv
http://keepshare.net/5vsc9wbrmpqj/Supernatural.S11E22.1080p.HDTV.X264-DIMENSION.mkv
http://keepshare.net/a8udg0tl4rbt/Supernatural.S11E23.1080p.HDTV.X264-DIMENSION.mkv


TOP DOANH THU

Chỉ dẫn nhanh

» Làm gì khi link dead? ⇒ Report

» Yêu cầu host link fshare ⇒ Report

Liên kết nhanh

Subscribes

Enter your email address:

Nhận thư khi có phim mới.

Tìm phim

I ♡ HDM


Đối tác



Also tagged with one or more of these keywords: multi, supernatural s11 complete, season, 1080p, hdtv, dimension, s11