Jump to content

Build Theme!
  • Log in with Twitter Log in with Windows Live Log In with Google      Sign In   
  • Create Account
The Magnificent Seven (2016)

Phim Mới

Photo
MULTI

The Last Ship S02 Complete Season 1080p BluRay x264-ROVERS

multi the last ship s02 complete se season 1080p bluray rovers the last ship s02

  • Please log in to reply

Other quality, encode

    You must login to see this content. How to register.

No replies to this topic

#1 MaCkeNzie

    Thành viên mới

    MaCkeNzie
  • 0 posts

Posted 18 May 2016 - 12:04 AM

269533-g9.jpg

Their mission is simple: Find a cure. Stop the virus. Save the world. When a global pandemic wipes out eighty percent of the planet's population, the crew of a lone naval destroyer must find a way to pull humanity from the brink of extinction. Executive Producer Michael Bay presents The Last Ship, starring Eric Dane, Rhona Mitra and Adam Baldwin.


MediaInfo:
Video
ID                                       : 1
Format                                   : AVC
Format/Info                              : Advanced Video Codec
Format profile                           : High@L4.1
Format settings, CABAC                   : Yes
Format settings, ReFrames                : 4 frames
Codec ID                                 : V_MPEG4/ISO/AVC
Duration                                 : 42mn 19s
Bit rate                                 : 10.4 Mbps
Width                                    : 1 920 pixels
Height                                   : 1 080 pixels
Display aspect ratio                     : 16:9
Frame rate mode                          : Constant
Frame rate                               : 23.976 fps
Color space                              : YUV
Chroma subsampling                       : 4:2:0
Bit depth                                : 8 bits
Scan type                                : Progressive
Bits/(Pixel*Frame)                       : 0.210
Stream size                              : 3.09 GiB (94%)
Writing library                          : x264 core 148 r2692 64f4e24
Encoding settings                        : cabac=1 / ref=4 / deblock=1:0:0 / analyse=0x3:0x133 / me=umh / subme=7 / psy=1 / psy_rd=1.00:0.00 / mixed_ref=1 / me_range=16 / chroma_me=1 / trellis=1 / 8x8dct=1 / cqm=0 / deadzone=21,11 / fast_pskip=0 / chroma_qp_offset=-2 / threads=18 / lookahead_threads=3 / sliced_threads=0 / nr=0 / decimate=1 / interlaced=0 / bluray_compat=0 / constrained_intra=0 / bframes=3 / b_pyramid=2 / b_adapt=1 / b_bias=0 / direct=1 / weightb=1 / open_gop=0 / weightp=2 / keyint=250 / keyint_min=23 / scenecut=40 / intra_refresh=0 / rc_lookahead=40 / rc=2pass / mbtree=1 / bitrate=10443 / ratetol=1.0 / qcomp=0.60 / qpmin=0 / qpmax=69 / qpstep=4 / cplxblur=20.0 / qblur=0.5 / ip_ratio=1.40 / aq=1:1.00
Language                                 : English
Default                                  : Yes
Forced                                   : No

Audio
ID                                       : 2
Format                                   : AC-3
Format/Info                              : Audio Coding 3
Mode extension                           : CM (complete main)
Format settings, Endianness              : Big
Codec ID                                 : A_AC3
Duration                                 : 42mn 20s
Bit rate mode                            : Constant
Bit rate                                 : 640 Kbps
Channel(s)                               : 6 channels
Channel positions                        : Front: L C R, Side: L R, LFE
Sampling rate                            : 48.0 KHz
Frame rate                               : 31.250 fps (1536 spf)
Compression mode                         : Lossy
Stream size                              : 194 MiB (6%)
Language                                 : English
Default                                  : Yes
Forced                                   : No

Menu
00:00:00.000                             : en:00:00:00.000
00:02:24.269                             : en:00:02:24.269
00:09:33.239                             : en:00:09:33.239
00:19:38.636                             : en:00:19:38.636
00:26:19.578                             : en:00:26:19.578
00:30:41.548                             : en:00:30:41.548
00:36:23.098                             : en:00:36:23.098
00:41:43.584                             : en:00:41:43.584

Download - FuLL SpeeD
http://keepshare.net/b0zeqcljxn20/the.last.ship.s02e01.1080p.bluray.x264-rovers.mkv
http://keepshare.net/2gvg0gxm1cv0/the.last.ship.s02e02.1080p.bluray.x264-rovers.mkv
http://keepshare.net/h5for2w3x394/the.last.ship.s02e03.1080p.bluray.x264-rovers.mkv
http://keepshare.net/hv3s24mur8hx/the.last.ship.s02e04.1080p.bluray.x264-rovers.mkv
http://keepshare.net/6xklgrncao47/the.last.ship.s02e05.1080p.bluray.x264-rovers.mkv
http://keepshare.net/xbhw9nk0dy09/the.last.ship.s02e06.1080p.bluray.x264-rovers.mkv
http://keepshare.net/8lzca654ih5y/the.last.ship.s02e07.1080p.bluray.x264-rovers.mkv
http://keepshare.net/wafam45h626h/the.last.ship.s02e08.1080p.bluray.x264-rovers.mkv
http://keepshare.net/op3gx5nrl7kk/the.last.ship.s02e09.1080p.bluray.x264-rovers.mkv
http://keepshare.net/nhg4qbdoiat3/the.last.ship.s02e10.1080p.bluray.x264-rovers.mkv
http://keepshare.net/aws3dfne74y6/the.last.ship.s02e11.1080p.bluray.x264-rovers.mkv
http://keepshare.net/8eg51tdyg5qe/the.last.ship.s02e12.1080p.bluray.x264-rovers.mkv
http://keepshare.net/c962wu16uldq/the.last.ship.s02e13.1080p.bluray.x264-rovers.mkv


TOP DOANH THU

Chỉ dẫn nhanh

» Làm gì khi link dead? ⇒ Report

» Yêu cầu host link fshare ⇒ Report

Liên kết nhanh

Subscribes

Enter your email address:

Nhận thư khi có phim mới.

Tìm phim

I ♡ HDM


Đối tác



Also tagged with one or more of these keywords: multi, the last ship s02 complete se, season, 1080p, bluray, rovers, the last ship, s02