Jump to content

Build Theme!
  • Log in with Twitter Log in with Windows Live Log In with Google      Sign In   
  • Create Account
The Magnificent Seven (2016)

Phim Mới

Photo
FSVN|Mega

Penguins of Madagascar 2014 1080p BluRay DTS x264-HDAccess ~ Biệt Đội Cánh Cụt Vùng Madagascar

fsvn|mega 1080p tt1911658 hdaccess 2014 bluray animation adventure family fshare mega

  • Please log in to reply

Other quality, encode

    You must login to see this content. How to register.

No replies to this topic

#1 minh281193

    Thành viên chính thức

    minh281193
  • 79 posts

Posted 01 March 2015 - 11:14 AM

Penguins of Madagascar 2014 1080p BluRay DTS x264-HDAccess

~o~

Biệt Đội Cánh Cụt Vùng Madagascar

55718_front.jpg

Những khán giả yêu thích loạt phim hoạt hình Madagascar chắc hẳn không thể nào quên bốn nhân vật đặc biệt trong biệt đội chim cánh cụt siêu quậy với tạo hình vừa nghịch ngợm, vừa đáng yêu, cùng sự xuất hiện bất ngờ và đầy cá tính trong những màn hành động gây cười ấn tượng, Và giờ đây, các chú chim cánh cụt sẽ quay lại màn ảnh rộng trong The Penguins of Madagascar. Bộ phim tập trung khai thác những câu chuyện xoay quanh bốn chú chim cánh cụt từ lúc còn là chim non cho đến khi trưởng thành.

:fs:
Hidden Content

https://www.fshare.vn/file/8F8M5IXXIJXP

:mega:
Hidden Content

Penguins.of.Madagascar.2014.1080p.BluRay.DTS.x264-HDAccess-HDMovie.vn
https://mega.co.nz/#F!aE1jBRoQ!BgSTLXTL618MMthvDs1PKA

:sub:

Long Tieng Viet >>http://www.fshare.vn/file/VCP9U9F3VXPH
 

Video
ID                                       : 1
Format                                   : AVC
Format/Info                              : Advanced Video Codec
Format profile                           : High@L4.1
Format settings, CABAC                   : Yes
Format settings, ReFrames                : 4 frames
Codec ID                                 : V_MPEG4/ISO/AVC
Duration                                 : 1h 31mn
Bit rate                                 : 12.7 Mbps
Width                                    : 1 920 pixels
Height                                   : 1 040 pixels
Display aspect ratio                     : 1.85:1
Frame rate mode                          : Constant
Frame rate                               : 23.976 fps
Color space                              : YUV
Chroma subsampling                       : 4:2:0
Bit depth                                : 8 bits
Scan type                                : Progressive
Bits/(Pixel*Frame)                       : 0.264
Stream size                              : 8.11 GiB (88%)

Audio
ID                                       : 2
Format                                   : DTS
Format/Info                              : Digital Theater Systems
Format profile                           : ES
Mode                                     : 16
Format settings, Endianness              : Big
Codec ID                                 : A_DTS
Duration                                 : 1h 31mn
Bit rate mode                            : Constant
Bit rate                                 : 1 509 Kbps
Channel(s)                               : 6 channels
Channel positions                        : Front: L C R, Side: L R, LFE
Sampling rate                            : 48.0 KHz
Bit depth                                : 24 bits
Compression mode                         : Lossy
Stream size                              : 991 MiB (10%)

Penguins.of.Madagascar.2014.1080p.jpg


  • sând50 likes this

TOP DOANH THU

Chỉ dẫn nhanh

» Làm gì khi link dead? ⇒ Report

» Yêu cầu host link fshare ⇒ Report

Liên kết nhanh

Subscribes

Enter your email address:

Nhận thư khi có phim mới.

Tìm phim

I ♡ HDM


Đối tác