Jump to content

Build Theme!
  • Log in with Facebook Log in with Twitter Log in with Windows Live Log In with Google      Sign In   
  • Create Account
The Magnificent Seven (2016)

Phim Mới

Photo
4S|FShare

Để Mai Tính 2 2014 HD 720p CAM.Rip [Hài Tết]

4S|FShare chàng trai năm áy để mai tính #kulee@ vietnam fshare 4share

  • Please log in to reply

Other quality, encode

    You must login to see this content. How to register.

11 replies to this topic

#1 #kulee@

    Thành viên trung thành

    #kulee@
  • 713 posts

Posted 27 January 2015 - 01:44 AM

[Hài Tết] Để Mai Tính 2 720p 2014
 
Z0MbpyQ.jpg 
 
:info:

General
Complete name                    : C:\Users\Kulee\Desktop\DMT2\De.Mai.Tinh.2-De.Mai.Hoi.Tinh.2015.mp4
Format                           : MPEG-4
Format profile                   : Base Media
Codec ID                         : isom
File size                        : 3.90 GiB
Duration                         : 1h 35mn
Overall bit rate                 : 5 865 Kbps
 
 
 
 
Video
ID                               : 1
Format                           : MPEG-4 Visual
Format profile                   : [email protected]
Format settings, BVOP            : No
Format settings, QPel            : No
Format settings, GMC             : No warppoints
Format settings, Matrix          : Default (H.263)
Codec ID                         : 20
Duration                         : 1h 35mn
Bit rate mode                    : Variable
Bit rate                         : 5 781 Kbps
Width                            : 1 280 pixels
Height                           : 720 pixels
Display aspect ratio             : 16:9
Frame rate mode                  : Constant
Frame rate                       : 29.970 fps
Color space                      : YUV
Chroma subsampling               : 4:2:0
Bit depth                        : 8 bits
type                        : Progressive
Compression mode                 : Lossy
Bits/(Pixel*Frame)               : 0.209
Stream size                      : 3.84 GiB (99%)
 
 
 
 
Audio
ID                               : 2
Format                           : AAC
Format/Info                      : Advanced Audio Codec
Format profile                   : LC
Codec ID                         : 40
Duration                         : 1h 35mn
Bit rate mode                    : Variable
Bit rate                         : 80.9 Kbps
Channel(s)                       : 2 channels
Channel positions                : Front: L R
Sampling rate                    : 44.1 KHz
Compression mode                 : Lossy
Stream size                      : 55.1 MiB (1%)

 
 
:plot: 

Để Mai Tính 2 (tựa cũ ĐỂ HỘI TÍNH) Bốn năm sau khi chia tay với Dũng và Mai, Phạm Hương Hội trở thành một doanh nhân thành đạt. Hội về Việt Nam đểxây dựng một trung tâm mua sắm khổng lồ. Vừa xuống sân bay, cơ duyên lại đem đến cho Hội cơ hội gặp được tình yêu mà bấy lâu Hội mong ước. Thế nhưng, số phận lại đùa giỡn thêm một lần khi buộc Hội phải chọn giữa tình yêu trong mơ và sự nghiệp. Đối tượng của Hội lần này là Nam - một chàng họa sĩ phong trần đã có người yêu: Thư Lê . Phim Để Mai Tính 2 là một bộ phim hài tốt, một câu chuyện đơn giản thể hiện bởi những tình tiết kỹ lưỡng, chặt chẽ, những góc quay chỉn chu, những pha hài hước tràn ngập phim và dàn diễn viên chất lượng, trẻ trung xinh đẹp. Lần trở lại này của chị Hội – Thái Hòa chắc chắn sẽ lại khiến cho khán giả ùn ùn kéo nhau ra rạp trong mùa Giáng Sinh và Tết Tây sắp tới. Những ngày nghỉ lễ cuối năm, thư giản giải trí bằng phim hài là chuẩn nhất

 
 
 
:trailer: 

 
DOWNLOAD
Coment + Thank để Lấy Link

:fs:

Hidden Content
You'll be able to see the hidden content once you log in.

 
  :4s:
4SHARE
Hidden Content
You'll be able to see the hidden content once you log in.

  • seigeimy, vankhin02, tcdaosithui and 4 others like this

#2 itzuitinh

    Thành viên mới

    itzuitinh
  • 1 posts

Posted 27 January 2015 - 07:56 AM

Thanks thớt


Edited by itzuitinh, 27 January 2015 - 07:56 AM.


#3 tcdaosithui

    Thành viên chính thức

    tcdaosithui
  • 108 posts

Posted 27 January 2015 - 10:10 AM

có anh em nào re-up Mega dùm, xin cám ơn trước



#4 thienvv

    Thành viên mới

    thienvv
  • 7 posts

Posted 27 January 2015 - 10:35 AM

Bản này là bản SD, cứ hào hứng tưởng HD :((

 

Dù sao cũng là film hot, down về để tết chiếu cho cả nhà xem, mặc dù đã xem rạp rồi :)

Hài giải trí tết cho có nhiều tiếng cười :)



#5 vankhin02

    Thành viên chính thức

    vankhin02
  • 65 posts

Posted 27 January 2015 - 01:02 PM

haiz ko có full HD hả ta, tưởng bản đẹp chứ :(



#6 lehuycuong

    Thành viên chính thức

    lehuycuong
  • 78 posts

Posted 27 January 2015 - 01:09 PM

Thankssss.......nhé



#7 s4o0nljn2

    Thành viên chính thức

    s4o0nljn2
  • 86 posts

Posted 27 January 2015 - 02:31 PM

Chất lượng 2 bản này còn kém hơn bản DVD 1.5 Gb dow tốn thời gian :(


  • Hàn Công Tử likes this

Ac quỷ sinh ra khi thiên thần sa ngã :D


#8 compaq373

    Thành viên mới

    compaq373
  • 15 posts

Posted 27 January 2015 - 07:26 PM

Thanks



#9 phamduy9x

    Chú làm trong Viettel

    phamduy9x
  • 129 posts

Posted 27 January 2015 - 11:00 PM

toàn bản fake, xem ghê vãi


fshare.vn/folder/TV1JV3200T | fshare.vn/folder/T33GX8PK0T | fshare.vn/folder/TWKZJ3D00T

thư mục audio ViE của tớ trên Fshare


#10 #kulee@

    Thành viên trung thành

    #kulee@
  • 713 posts

Posted 28 January 2015 - 12:17 AM

toàn bản fake, xem ghê vãi

Bạn tải về chưa mà kêu fake? 



#11 phamduy9x

    Chú làm trong Viettel

    phamduy9x
  • 129 posts

Posted 28 January 2015 - 03:44 AM

Bạn tải về chưa mà kêu fake? 

tải r mới phán chứ. k thì bị ăn gạch ngay -_-


fshare.vn/folder/TV1JV3200T | fshare.vn/folder/T33GX8PK0T | fshare.vn/folder/TWKZJ3D00T

thư mục audio ViE của tớ trên Fshare


#12 Hàn Công Tử

    Music is a part of my life

    Hàn Công Tử
  • 2,964 posts

Posted 28 January 2015 - 05:59 AM

để DVD.rip thôi nhé, bản này là bản upscale nhé.
  • tcdaosithui likes this

Password for all : hdmovie.vn


TOP DOANH THU

Chỉ dẫn nhanh

» Làm gì khi link dead? ⇒ Report

» Yêu cầu host link fshare ⇒ Report

Liên kết nhanh

Subscribes

Enter your email address:

Nhận thư khi có phim mới.

Tìm phim

I ♡ HDM


Đối tác